<?xml version="1.0" encoding="UTF-8" standalone="no"?> <svg xmlns="http://www.w3.org/2000/svg"><defs><font id="Merriweather"><glyph unicode=" " glyph-name="space"></glyph><glyph unicode="!" glyph-name="exclam" d="M222 258H124L80 886H265L222 258ZM83 114T112 139T183 165Q224 165 248 141T272 82Q272 40 244 16T168 -8Q135 -8 109 15T83 74Q83 114 112 139Z"></glyph><glyph unicode="&quot;" glyph-name="quotedbl" d="M232 423H134L110 841H257L232 423ZM510 423H412L388 841H535L510 423Z"></glyph><glyph unicode="#" glyph-name="numbersign" d="M65 284H187L204 453H90V536H219L243 743H365L341 536H479L503 743H626L601 536H711V453H587L571 284H689L690 201H558L536 0H414L435 201H296L274 0H150L174 201H66L65 284ZM326 453L309 284H445L465 453H326Z"></glyph><glyph unicode="$" glyph-name="dollar" d="M599 128T545 67T376 -8L375 -126H288L289 -10Q234 -7 188 3T113 22T78 33L86 214H181L207 93Q236 58 313 58Q431 58 431 162Q431 208 390 241T260 320Q175 363 129 415T82 555Q82 603 106 644T178 714T292 750V860H381V751Q449 747 499 732T554 716L548 550H456L434 660Q423 671 402 678T356 686Q303 686 273 660T243 592Q243 556 266 528T319 482T410 432Q471 399 509 371T573 303T599 210Q599 128 545 67Z"></glyph><glyph unicode="%" glyph-name="percent" d="M646 751H749L428 0H326L646 751ZM176 312T132 340T66 417T44 525Q44 594 71 644T147 721T254 748Q355 748 401 689T447 531Q447 463 419 414T343 338T237 312Q176 312 132 340ZM285 376T300 415T316 527Q316 595 301 638T248 682Q210 682 194 643T177 532Q177 469 193 423T246 376Q285 376 300 415ZM761 10T718 39T652 116T630 224Q630 293 657 343T732 420T840 446Q940 446 986 387T1033 230Q1033 161 1005 112T929 36T822 10Q761 10 718 39ZM869 76T885 113T901 218Q901 290 887 335T834 380Q795 380 779 341T762 230Q762 167 778 122T831 76Q869 76 885 113Z"></glyph><glyph unicode="&amp;" glyph-name="ampersand" d="M755 341L685 327Q685 266 665 215T613 129Q644 103 673 89T737 73V10Q726 2 693 -2T639 -7Q598 -7 568 2T505 34Q441 -11 324 -11Q190 -11 114 42T38 191Q38 254 82 300T190 370Q150 423 129 466T107 563Q107 616 137 659T219 728T335 753Q401 753 446 733T513 679T535 607Q535 531 495 485T364 392Q403 344 456 286T543 195L559 179Q590 239 586 327L511 341V414H755V341ZM259 549T278 512T327 438Q368 476 385 517T402 608Q402 641 387 669T335 698Q300 698 280 671T259 593Q259 549 278 512ZM407 60T441 83Q402 115 362 161T263 279L232 317Q210 295 196 267T181 206Q181 140 224 100T344 60Q407 60 441 83Z"></glyph><glyph unicode="'" glyph-name="quotesingle" d="M232 423H134L110 841H257L232 423Z"></glyph><glyph unicode="(" glyph-name="parenleft" d="M52 475T103 581T215 749T321 835L378 790Q347 771 306 714T232 556T200 322Q200 193 231 94T303 -66T377 -148L321 -191Q231 -137 142 -18T52 334Q52 475 103 581Z"></glyph><glyph unicode=")" glyph-name="parenright" d="M397 170T346 64T233 -104T127 -190L70 -145Q101 -126 142 -69T216 89T248 323Q248 452 217 551T145 711T71 793L127 836Q217 782 307 663T397 311Q397 170 346 64Z"></glyph><glyph unicode="*" glyph-name="asterisk" d="M290 576L153 615L63 657L125 765L208 707L312 611L275 744L264 848H395L387 746L356 614L457 709L540 768L605 661L518 616L378 576L518 539L607 497L541 386L463 443L356 538L393 405L403 302H273L281 405L312 540L210 442L129 382L64 490L153 535L290 576Z"></glyph><glyph unicode="+" glyph-name="plus" d="M281 367L278 444V553H383V444L378 367L457 372H561V268H457L378 271L383 196V81H278V196L281 271L189 268H100V372H189L281 367Z"></glyph><glyph unicode="," glyph-name="comma" d="M198 179T220 161T256 111T270 41Q270 -21 248 -83T193 -190T131 -249H130L82 -217V-201Q106 -181 124 -127T142 -25Q142 -9 136 2T116 26Q100 42 91 58T82 102Q82 137 105 158T166 179H172Q198 179 220 161Z"></glyph><glyph unicode="-" glyph-name="hyphen" d="M520 267H112V372H520V267Z"></glyph><glyph unicode="." glyph-name="period" d="M112 -8T87 16T61 75Q61 115 90 140T162 166Q201 166 225 141T249 82Q249 40 221 16T146 -8Q112 -8 87 16Z"></glyph><glyph unicode="/" glyph-name="slash" d="M144 -177H32L287 781H398L144 -177Z"></glyph><glyph unicode="0" glyph-name="zero" d="M193 -10T123 71T53 304Q53 412 93 485T200 594T348 630Q476 630 544 551T613 319Q613 211 574 137T468 27T321 -10Q193 -10 123 71ZM387 55T413 117T439 306Q439 401 429 457T395 538T333 564Q227 564 227 317Q227 178 252 117T334 55Q387 55 413 117Z"></glyph><glyph unicode="1" glyph-name="one" d="M173 474Q156 469 113 461T47 450L36 529Q92 540 154 570T253 631H254L344 619V77L452 65V0H57V65L173 76V474Z"></glyph><glyph unicode="2" glyph-name="two" d="M170 144T253 236T337 420Q337 465 308 492T228 519Q194 519 167 509T123 488T81 455L40 516Q59 541 98 567T187 612T290 630Q365 630 416 606T491 540T516 449Q516 355 427 263T193 90L471 119L511 202L580 187L550 0H57L33 61Q170 144 253 236Z"></glyph><glyph unicode="3" glyph-name="three" d="M144 -160T105 -155T42 -142V-58Q86 -72 139 -72Q204 -72 251 -51T324 7T349 89Q349 212 209 220L151 205L129 272Q165 277 210 297Q265 323 293 360T322 439Q322 484 293 505T221 527Q177 527 141 513T79 477L39 547Q57 564 94 583T179 616T275 630Q374 630 435 589T496 466Q496 393 441 340T301 257Q312 258 332 258Q422 258 478 214T534 92Q534 21 491 -36T367 -127T177 -160Q144 -160 105 -155Z"></glyph><glyph unicode="4" glyph-name="four" d="M391 0H62L25 57Q102 200 300 681H333L466 614L220 149L175 82L392 96L406 278L529 287V106L649 113V0H529V-160H391V0Z"></glyph><glyph unicode="5" glyph-name="five" d="M116 -84T145 -84Q212 -84 267 -57T355 18T387 121Q387 190 353 219T253 249Q220 249 182 241T118 221L81 247L129 621H453L463 640H536L513 501H234L195 309Q273 348 353 348Q458 348 512 296T567 150Q567 59 514 -12T368 -122T157 -161Q119 -161 87 -154V-81Q116 -84 145 -84Z"></glyph><glyph unicode="6" glyph-name="six" d="M255 -12T193 29T97 143T64 305Q64 435 128 541T292 712T490 786L524 726Q422 696 355 623T258 450Q315 499 406 499Q503 499 561 438T619 270Q619 195 587 131T491 27T341 -12Q255 -12 193 29ZM313 415T286 402T242 371Q238 343 238 285Q238 55 346 55Q396 55 423 106T450 239Q450 415 346 415Q313 415 286 402Z"></glyph><glyph unicode="7" glyph-name="seven" d="M139 -139Q204 -12 266 132T406 463L432 525L187 520L129 365L34 384L60 621H550L580 583L313 -185L139 -139Z"></glyph><glyph unicode="8" glyph-name="eight" d="M47 239T85 286T195 363Q140 400 110 445T79 557Q79 618 112 662T202 729T329 753Q402 753 454 732T534 672T562 586Q562 532 529 488T431 414Q511 369 556 319T602 194Q602 132 566 86T466 14T317 -11Q203 -11 125 36T47 182Q47 239 85 286ZM225 562T244 537T293 493T373 446Q405 469 422 499T440 564Q440 624 412 657T329 690Q286 690 256 665T225 594Q225 562 244 537ZM437 196T418 221T370 264T291 309L248 332Q217 309 199 277T181 206Q181 139 217 98T320 56Q366 56 401 86T437 165Q437 196 418 221Z"></glyph><glyph unicode="9" glyph-name="nine" d="M419 630T480 591T573 481T605 320Q605 187 545 79T388 -95T191 -171L158 -111Q259 -81 322 -8T412 169Q388 147 352 133T271 119Q207 119 157 148T78 232T49 359Q49 432 82 494T179 593T330 630Q419 630 480 591ZM358 204T385 217T427 247Q431 297 432 322Q432 440 406 502T321 564Q272 564 245 514T218 387Q218 293 247 249T326 204Q358 204 385 217Z"></glyph><glyph unicode=":" glyph-name="colon" d="M126 397T101 420T75 480Q75 520 104 545T176 571Q216 571 240 546T264 487Q264 445 236 421T160 397Q126 397 101 420ZM126 -8T101 16T75 75Q75 115 104 140T176 166Q216 166 240 141T264 82Q264 40 236 16T160 -8Q126 -8 101 16Z"></glyph><glyph unicode=";" glyph-name="semicolon" d="M127 397T102 420T76 480Q76 520 105 545T176 571Q216 571 240 546T264 487Q264 445 236 421T161 397Q127 397 102 420ZM198 179T220 161T256 111T270 41Q270 -21 248 -83T193 -190T131 -249H130L82 -217V-201Q106 -181 124 -127T142 -25Q142 -9 136 2T116 26Q100 42 91 58T82 102Q82 137 105 158T166 179H172Q198 179 220 161Z"></glyph><glyph unicode="&lt;" glyph-name="less" d="M555 457L230 301L555 142V27L82 270V331L555 575V457Z"></glyph><glyph unicode="=" glyph-name="equal" d="M558 387H99V486H558V387ZM558 115H99V214H558V115Z"></glyph><glyph unicode="&gt;" glyph-name="greater" d="M114 27V142L439 301L114 457V575L587 331V270L114 27Z"></glyph><glyph unicode="?" glyph-name="question" d="M134 335T132 393Q132 439 174 483T308 574Q309 575 319 596T329 657Q329 696 309 730T245 786T137 808Q97 808 61 789L38 878Q60 890 102 899T201 908Q301 908 366 876T461 790T492 672Q492 621 472 586T425 529T352 480Q319 460 302 448T274 421Q267 407 268 389Q268 311 278 261H181Q134 335 132 393ZM185 -8T159 15T133 74Q133 114 162 139T233 165Q274 165 298 141T322 82Q322 40 294 16T218 -8Q185 -8 159 15Z"></glyph><glyph unicode="@" glyph-name="at" d="M73 331T142 473T338 698T634 781Q744 781 830 735T966 603T1016 402Q1016 275 963 183T833 44T695 -4Q667 -4 648 20T628 87Q628 129 644 219Q608 119 557 53T445 -14Q410 -14 377 11T323 82T302 190Q302 272 334 350T427 477T566 526Q593 526 624 519T682 498Q685 508 695 516T714 522Q728 518 752 509L793 496Q786 461 786 461Q737 242 737 155Q737 125 743 105T757 85Q802 85 842 120T906 218T930 363Q930 544 833 621T591 698Q467 698 373 632T228 448T176 182Q176 63 219 -20T335 -144T494 -186Q553 -186 611 -173T700 -141L719 -186Q678 -221 611 -241T468 -261Q360 -261 270 -210T126 -62T73 161Q73 331 142 473ZM425 185T439 145T479 104Q509 104 551 164T619 302Q643 376 646 404Q635 417 601 430T546 444Q489 444 457 380T425 227Q425 185 439 145Z"></glyph><glyph unicode="A" glyph-name="A" d="M262 746H442L666 76L721 66V0H406V66L477 76L443 196H204L170 75L248 66V0H-18L-19 66L39 77L262 746ZM336 572L321 642L305 571L224 273H422L336 572Z"></glyph><glyph unicode="B" glyph-name="B" d="M111 659L36 673V743H194Q228 743 284 747Q296 748 314 749T356 750Q465 750 527 730T613 673T638 580Q638 505 592 456T473 397Q573 397 630 352T688 225Q688 118 615 56T365 -6Q337 -6 311 -5T274 -3Q238 0 196 0H34V66L111 77V659ZM298 420T361 420Q416 420 442 457T468 563Q468 626 440 655T349 684Q334 684 314 683T280 679V422Q298 420 361 420ZM300 63T359 63Q433 63 466 102T500 215Q500 285 469 315T371 345Q316 345 280 343V71Q300 63 359 63Z"></glyph><glyph unicode="C" glyph-name="C" d="M206 -11T116 89T26 365Q26 483 74 570T206 704T396 751Q438 751 477 747T571 734Q614 727 630 726L618 503H511L477 656Q455 680 385 680Q308 680 264 604T219 379Q219 235 262 148T389 61Q430 61 451 69T488 92L533 199L631 190L613 27Q584 25 542 12Q502 1 467 -5T379 -11Q206 -11 116 89Z"></glyph><glyph unicode="D" glyph-name="D" d="M111 659L38 673V743H194Q227 743 283 747Q296 748 322 749T370 750Q552 750 644 659T736 398Q736 281 691 189T562 45T364 -8Q333 -8 271 -4Q213 0 196 0H34V66L111 77V659ZM315 63T360 65Q450 66 499 141T549 373Q549 517 501 598T348 680Q324 680 305 677T280 673V74Q315 63 360 65Z"></glyph><glyph unicode="E" glyph-name="E" d="M111 659L33 673V743H580L593 566H514L479 667L282 677V417L404 420L422 502H491V251H422L405 338L282 341V69L501 83L562 212L647 188L623 0H34V66L111 76V659Z"></glyph><glyph unicode="F" glyph-name="F" d="M111 659L31 673V743H593L604 556H514L474 665L282 677V400L413 403L433 493H503V226H434L413 319L282 323V77L435 66V0H36V66L111 77V659Z"></glyph><glyph unicode="G" glyph-name="G" d="M272 -11T192 38T71 172T30 365Q30 489 77 576T211 707T419 752Q488 752 556 742T671 721L659 528H539L511 660Q502 670 479 677T415 685Q326 685 277 607T228 379Q228 231 269 145T399 58Q435 58 464 67T509 92V301L416 311V384H728V311L678 303V40Q661 39 599 24Q538 8 489 -1T384 -11Q272 -11 192 38Z"></glyph><glyph unicode="H" glyph-name="H" d="M112 660L40 673V743H364V673L282 660V421H556V659L481 673V743H801V673L727 660V76L801 66V0H481V66L556 77V336H282V76L364 66V0H38V66L112 76V660Z"></glyph><glyph unicode="I" glyph-name="I" d="M122 659L40 673V743H377V673L293 659V76L377 65V0H41V66L122 77V659Z"></glyph><glyph unicode="J" glyph-name="J" d="M20 -123T54 -90T105 -6Q115 26 120 70T125 191V659L40 673V743H375V673L296 660V275Q296 173 293 110T281 14Q258 -67 191 -122T20 -194L-18 -136Q20 -123 54 -90Z"></glyph><glyph unicode="K" glyph-name="K" d="M547 0T526 36T463 156Q398 292 363 339L282 246V76L365 66V0H35V66L112 77V659L35 673V743H356V673L282 659V348L526 659L445 673V743H730V674L642 660L462 456Q498 424 536 365T630 208Q667 143 685 113T715 77L763 66V0H561Q547 0 526 36Z"></glyph><glyph unicode="L" glyph-name="L" d="M112 659L37 673V743H378V673L283 659V78L471 88L536 286L630 274L601 0H35V66L112 76V659Z"></glyph><glyph unicode="M" glyph-name="M" d="M157 659L51 673V743H391L497 325L521 214L541 325L646 743H984V673L875 659L955 77L1032 66V0H695V66L780 77L738 508L720 684L685 524L554 29H423L283 510L237 685L225 508L188 77L290 66V0H1V66L84 76L157 659Z"></glyph><glyph unicode="N" glyph-name="N" d="M113 660L35 673V743H286L562 317L618 197V660L533 673V743H789V673L713 660V0H566L273 457L207 589V77L313 66V0H35V66L113 77V660Z"></glyph><glyph unicode="O" glyph-name="O" d="M189 -11T108 90T27 370Q27 485 69 571T189 705T369 752Q541 752 622 657T704 384Q704 267 661 178T540 39T357 -11Q189 -11 108 90ZM294 686T255 607T215 371Q215 211 254 134T365 56Q436 56 475 140T515 383Q515 543 477 614T366 686Q294 686 255 607Z"></glyph><glyph unicode="P" glyph-name="P" d="M112 659L38 673V743H201Q217 743 263 745Q321 749 368 749Q476 749 538 723T626 649T652 526Q652 398 574 327T352 256Q307 256 283 259V77L415 66V0H35V66L112 76V659ZM302 323T348 323Q478 323 478 522Q478 605 446 643T348 682Q320 682 304 680T282 676V328Q302 323 348 323Z"></glyph><glyph unicode="Q" glyph-name="Q" d="M734 -187T682 -160T560 -82Q516 -49 489 -32T432 -4Q390 -11 357 -11Q189 -11 108 90T27 370Q27 485 69 571T189 705T370 752Q542 752 623 657T705 384Q705 262 658 170T527 31Q561 25 596 11T681 -28Q744 -58 782 -72T856 -86Q894 -86 909 -81L924 -128Q898 -160 870 -173T797 -187Q734 -187 682 -160ZM436 56T476 140T516 383Q516 543 478 614T367 686Q295 686 256 607T216 371Q216 211 254 134T365 56Q436 56 476 140Z"></glyph><glyph unicode="R" glyph-name="R" d="M34 66L111 76V660L38 674V743H192Q211 743 233 744T268 746Q322 750 360 750Q467 750 530 730T621 666T650 551Q650 483 614 424T508 343Q554 326 585 280T651 161Q671 119 683 99T708 75L737 66V0H547Q532 0 516 32T475 132Q444 215 422 260T372 316H282V76L371 66V0H34V66ZM411 381T440 421T469 544Q469 616 441 649T345 683Q309 683 282 678V384Q295 381 325 381T359 381Q411 381 440 421Z"></glyph><glyph unicode="S" glyph-name="S" d="M246 -11T200 -2T102 22Q69 32 54 33L63 220H156L181 92Q192 79 221 69T292 59Q353 59 383 86T414 160Q414 193 395 217T341 262T246 310Q167 346 113 401T58 548Q58 604 87 650T175 724T322 752Q375 752 414 745T499 726Q523 718 536 717L530 539H439L416 662Q409 671 385 678T330 686Q275 686 248 660T220 593Q220 557 243 530T298 485T398 433Q451 407 490 381T558 312T586 214Q586 159 560 108T469 23T301 -11Q246 -11 200 -2Z"></glyph><glyph unicode="T" glyph-name="T" d="M277 669L152 664L110 441H16L32 743H691L704 441H615L571 664L450 669V77L589 66V0H150V66L277 77V669Z"></glyph><glyph unicode="U" glyph-name="U" d="M232 -8T155 67T78 302V659L16 673V743H339V673L255 658V288Q255 62 412 62Q490 62 526 121T563 286V659L477 673V743H737V673L671 659V295Q671 139 595 66T387 -8Q232 -8 155 67Z"></glyph><glyph unicode="V" glyph-name="V" d="M-19 743H308V673L226 660L365 225L390 137L410 226L543 659L465 673V743H719V673L654 659L428 -7H289L40 659L-19 673V743Z"></glyph><glyph unicode="W" glyph-name="W" d="M-18 743H301V673L218 659L337 218L356 125L373 218L475 574L446 659L383 673V743H717V673L622 659L741 218L763 117L780 218L887 659L802 673V743H1045V673L983 659L798 -5H645L516 440L394 -5H243L40 659L-18 673V743Z"></glyph><glyph unicode="X" glyph-name="X" d="M279 358L78 659L12 673V743H356V673L278 658L403 449L534 659L450 673V743H713V673L632 659L443 399L658 77L724 66V0H381V66L459 77L321 305L189 76L282 66V0H6V66L88 76L279 358Z"></glyph><glyph unicode="Y" glyph-name="Y" d="M243 298L36 660L-19 673V743H296V673L231 659L345 430L370 365L396 430L499 659L423 673V743H678V673L617 662L425 299V77L531 66V0H140V66L243 77V298Z"></glyph><glyph unicode="Z" glyph-name="Z" d="M434 682L196 667L140 530L54 542L79 745H599L624 686L273 132L203 67L488 88L546 242L632 224L610 0H48L15 58L374 614L434 682Z"></glyph><glyph unicode="[" glyph-name="bracketleft" d="M87 741T101 764T142 796T212 804Q276 804 356 784V729H229V-61H356V-117Q281 -137 212 -137Q169 -137 143 -129T102 -98T87 -29V696Q87 741 101 764Z"></glyph><glyph unicode="\" glyph-name="backslash" d="M270 -177L16 781H127L382 -177H270Z"></glyph><glyph unicode="]" glyph-name="bracketright" d="M345 -74T331 -97T290 -129T220 -137Q151 -137 76 -117V-61H203V729H76V784Q156 804 220 804Q263 804 289 796T330 765T345 696V-29Q345 -74 331 -97Z"></glyph><glyph unicode="^" glyph-name="asciicircum" d="M588 134H460L332 587L205 134H77L276 748H387L588 134Z"></glyph><glyph unicode="_" glyph-name="underscore" d="M-10 -198V-122H845V-198H-10Z"></glyph><glyph unicode="`" glyph-name="grave" d="M157 646T114 677T31 746T-25 813L70 899L248 685L186 636H185Q157 646 114 677Z"></glyph><glyph unicode="a" glyph-name="a" d="M28 248T117 295T353 343V363Q353 399 345 420T316 451T254 462Q205 462 167 451T86 420L52 492Q68 505 104 523T190 555T296 569Q376 569 421 548T486 483T506 363V66H558V3Q535 -2 494 -7T424 -12Q386 -12 374 -1T361 43V66Q336 36 294 13T197 -11Q150 -11 112 9T51 68T28 160Q28 248 117 295ZM293 81T315 91T353 117V276Q275 276 238 248T200 176Q200 131 220 106T275 81Q293 81 315 91Z"></glyph><glyph unicode="b" glyph-name="b" d="M1 796L198 820H200L232 800V508Q258 535 296 552T377 570Q473 570 532 503T592 296Q592 209 556 139T451 29T292 -11Q206 -11 148 2T72 27V725L1 738V796ZM290 472T268 461T232 435V73Q236 63 254 57T297 51Q353 51 386 110T419 284Q419 381 391 426T315 472Q290 472 268 461Z"></glyph><glyph unicode="c" glyph-name="c" d="M31 363T67 430T168 533T318 570Q360 570 390 565T453 549Q482 541 489 540L482 359H381L355 474Q352 487 339 492T306 498Q259 498 233 452T206 299Q206 197 239 143T330 88Q404 88 466 126L493 67Q469 40 414 15T292 -11Q161 -11 96 66T31 274Q31 363 67 430Z"></glyph><glyph unicode="d" glyph-name="d" d="M153 -11T93 58T33 265Q33 348 67 417T169 528T333 570Q362 570 393 563V722L297 736V800L518 820H523L553 796V67H605V3Q528 -12 477 -12Q442 -12 427 -1T411 44V69Q387 34 342 12T249 -11Q153 -11 93 58ZM337 79T358 90T393 118V480Q386 489 368 495T328 501Q272 501 239 448T206 273Q206 174 234 127T309 79Q337 79 358 90Z"></glyph><glyph unicode="e" glyph-name="e" d="M163 -11T97 66T31 278Q31 369 65 435T160 535T305 570Q410 570 465 517T523 367Q523 303 514 264H201Q206 179 242 135T345 90Q382 90 422 102T488 131L516 70Q490 41 428 15T300 -11Q163 -11 97 66ZM364 330L365 372Q365 435 348 468T290 501Q248 501 225 465T200 330H364Z"></glyph><glyph unicode="f" glyph-name="f" d="M108 472H30V534L108 554V596Q108 663 144 718T240 805T371 837Q408 837 438 827V682Q427 694 395 705T332 717Q299 717 285 700T271 644V555H391V472H271V75L372 66V0H31V66L108 75V472Z"></glyph><glyph unicode="g" glyph-name="g" d="M151 -270T90 -227T28 -112Q28 -72 55 -36T123 18Q76 45 76 104Q76 136 98 166T157 213Q46 254 46 383Q46 440 80 482T172 547T300 570Q425 570 483 524Q497 541 527 556T589 572H625V450H526Q536 422 536 393Q536 301 471 247T286 193Q237 193 205 200Q199 188 196 175T192 154Q192 123 215 112T299 100H402Q613 100 613 -51Q613 -117 567 -167T447 -243T289 -270Q151 -270 90 -227ZM338 261T356 292T375 383Q375 447 356 476T295 505Q210 505 210 387Q210 261 296 261Q338 261 356 292ZM363 -195T402 -166T441 -84Q441 -42 420 -25T346 -7H244Q228 -7 208 -5Q189 -36 189 -82Q189 -195 308 -195Q363 -195 402 -166Z"></glyph><glyph unicode="h" glyph-name="h" d="M87 722L16 735V796L217 820H220L249 799L250 582L242 493Q273 522 324 544T436 567Q499 567 534 544T583 474T597 349V75L658 66V0H380V66L433 75V348Q433 418 418 445T357 473Q329 473 301 461T254 430V75L309 66V0H35V66L87 75V722Z"></glyph><glyph unicode="i" glyph-name="i" d="M125 642T101 665T77 724Q77 766 103 793T175 820Q220 820 244 797T268 738Q268 695 241 669T165 642H164Q125 642 101 665ZM103 451L36 470V545L236 569H238L269 548V75L329 66V0H41V66L103 75V451Z"></glyph><glyph unicode="j" glyph-name="j" d="M130 642T106 665T82 724Q82 766 108 793T180 820Q224 820 247 797T271 738Q271 695 245 669T170 642H169Q130 642 106 665ZM36 545L233 569H235L265 548V10Q265 -68 232 -125T150 -212T56 -243Q6 -243 -6 -239L-14 -176Q14 -176 36 -164Q72 -147 88 -97T104 42V449L36 468V545Z"></glyph><glyph unicode="k" glyph-name="k" d="M87 722L19 735V796L218 820H221L250 799V332L247 283L435 481L361 492V555H633V492L551 479L443 376L608 75L660 66V0H382V66L427 75L328 273L247 189L249 138V75L307 66V0H32V66L87 75V722Z"></glyph><glyph unicode="l" glyph-name="l" d="M94 722L24 735V796L224 820H227L256 799V75L321 66V0H30V66L94 75V722Z"></glyph><glyph unicode="m" glyph-name="m" d="M45 66L98 75V451L39 469V547L221 569L229 565L249 537V487Q281 520 343 543T449 567Q503 567 536 549T587 493Q621 525 672 546T777 567Q865 567 903 516T942 349V75L1002 66V0H731V66L776 75V345Q776 417 760 445T699 473Q653 473 603 434Q609 397 609 349V75L665 66V0H392V66L442 75V348Q442 419 427 446T368 473Q340 473 313 461T265 430V75L319 66V0H45V66Z"></glyph><glyph unicode="n" glyph-name="n" d="M98 451L39 469V547L221 569H224L250 548V511L249 488Q284 521 338 544T451 567Q511 567 545 546T595 477T611 349V75L667 67V0H395V66L444 75V348Q444 396 438 422T415 461T369 473Q323 473 265 430V75L320 66V0H43V66L98 75V451Z"></glyph><glyph unicode="o" glyph-name="o" d="M45 371T83 437T185 537T327 570Q453 570 524 495T596 284Q596 185 558 119T456 21T313 -11Q188 -11 117 64T45 275Q45 371 83 437ZM371 59T394 110T418 272Q418 389 396 444T320 500Q222 500 222 287Q222 171 246 115T323 59Q371 59 394 110Z"></glyph><glyph unicode="p" glyph-name="p" d="M606 213T572 143T470 31T307 -11Q291 -11 273 -8T244 -1L247 -82V-167L333 -180V-242H26V-180L87 -167V451L26 469V547L205 569H207L234 548V494Q257 525 298 547T389 570Q485 570 545 503T606 296Q606 213 572 143ZM304 478T281 468T247 442V76Q254 67 271 61T310 55Q366 55 399 109T433 284Q433 382 405 430T330 478Q304 478 281 468Z"></glyph><glyph unicode="q" glyph-name="q" d="M286 -180L394 -167V-23L397 50Q370 23 331 6T250 -11Q154 -11 94 58T33 266Q33 349 67 418T170 528T334 570Q362 570 394 564T450 550L530 566L555 548V-168L622 -180V-242H286V-180ZM337 78T359 89T394 115V481Q388 490 369 496T328 502Q273 502 240 449T207 277Q207 178 236 128T312 78Q337 78 359 89Z"></glyph><glyph unicode="r" glyph-name="r" d="M43 66L104 75V451L45 469V547L211 569H214L242 548V524L239 441H242Q249 464 274 494T337 547T421 570Q447 570 461 563V389Q445 401 427 408T379 415Q343 415 314 406T268 384V75L378 65V0H43V66Z"></glyph><glyph unicode="s" glyph-name="s" d="M167 83Q174 72 199 63T251 54Q292 54 313 71T335 117Q335 147 307 166T215 214L177 231Q112 260 80 301T47 407Q47 453 74 489T152 547T272 568Q320 568 355 562T426 547Q450 540 462 539V403H373L347 480Q342 489 323 496T280 504Q242 504 220 488T198 443Q198 411 223 393T303 349L324 340Q405 306 451 267T497 158Q497 84 438 37T264 -11Q211 -11 170 -3T80 20L47 29V162H142L167 83Z"></glyph><glyph unicode="t" glyph-name="t" d="M145 -9T114 21T82 116V472H21V530L41 538Q65 546 83 555Q103 574 115 605Q130 641 148 706H241L247 556H390V472H249V207Q249 152 252 130T263 102T295 95Q342 95 384 111L405 48Q377 25 322 8T211 -9Q145 -9 114 21Z"></glyph><glyph unicode="u" glyph-name="u" d="M457 -10T441 5T425 51V73Q401 40 353 15T256 -11Q158 -11 117 37T75 200V478L28 491V555L216 568H217L239 554V196Q239 131 255 106T312 80Q368 80 406 118V478L344 493V555L542 568H545L569 554V69H622V5Q588 -2 560 -6T493 -10Q457 -10 441 5Z"></glyph><glyph unicode="v" glyph-name="v" d="M-9 556H275V492L212 480L296 216L322 125L343 215L426 480L365 492V556H596V492L544 480L362 -8H228L30 480L-9 492V556Z"></glyph><glyph unicode="w" glyph-name="w" d="M-18 555H256V492L189 481L257 232L278 133L296 232L382 555H517L616 232L637 134L657 232L720 480L648 492V555H868V492L820 481L669 -8H542L443 298L422 414L407 298L318 -8H188L29 481L-18 492V555Z"></glyph><glyph unicode="x" glyph-name="x" d="M219 271L56 481L6 492V556H318V492L256 481L326 380L351 339L376 381L448 481L384 492V556H605V492L549 481L397 293L567 75L621 65V0H311V65L366 75L298 182L268 225L245 182L173 75L246 65V0H1V65L63 75L219 271Z"></glyph><glyph unicode="y" glyph-name="y" d="M119 -249T97 -246T64 -238V-118Q71 -123 94 -127T136 -132Q187 -132 217 -100T272 0H214L27 480L-17 492V556H278V492L208 480L291 214L321 113L345 214L422 481L362 492V556H588V492L540 481Q498 352 438 178T370 -12Q340 -95 310 -145T238 -222T140 -249Q119 -249 97 -246Z"></glyph><glyph unicode="z" glyph-name="z" d="M161 479L134 380H55V556H506L532 498L283 145L211 68L409 79L460 196L535 187L519 0H46L18 61L275 405L351 487L161 479Z"></glyph><glyph unicode="{" glyph-name="braceleft" d="M221 -141T179 -107T137 -7Q137 23 145 49T170 112Q185 144 193 168T201 221Q201 247 194 262T159 287T74 297V381Q132 381 159 387T194 407T201 445Q201 473 193 497T170 555Q153 594 145 619T137 676Q137 742 179 776T315 810Q346 810 373 806T425 796T458 788V727Q438 728 385 728Q343 728 318 712T293 653Q293 635 298 615T313 561Q325 522 330 498T336 449Q336 400 294 373T185 336Q251 327 293 298T336 219Q336 196 331 173T313 109Q305 85 299 61T293 19Q293 -25 318 -41T385 -57Q438 -57 458 -56V-119Q449 -121 421 -127T366 -137T315 -141Q221 -141 179 -107Z"></glyph><glyph unicode="|" glyph-name="bar" d="M266 -91H156V869H266V-91Z"></glyph><glyph unicode="}" glyph-name="braceright" d="M180 -141T152 -137T100 -127T67 -119V-56Q87 -57 140 -57Q182 -57 207 -41T232 19Q232 37 227 57T213 109Q201 149 196 172T190 219Q190 268 232 297T340 336Q273 345 232 372T190 449Q190 473 195 497T213 561Q215 567 220 587T229 624T232 653Q232 696 207 712T140 728Q87 728 67 727V788Q75 790 104 796T159 806T211 810Q304 810 346 776T388 676Q388 645 380 619T355 556Q340 522 332 498T324 446Q324 422 331 409T366 389T451 382V296Q394 296 367 287T332 262T324 220Q324 192 332 168T355 111Q371 75 379 50T388 -7Q388 -73 346 -107T211 -141Q180 -141 152 -137Z"></glyph><glyph unicode="~" glyph-name="asciitilde" d="M115 326T160 359T257 392Q293 392 319 379T379 340Q403 322 417 314T448 306Q482 306 504 320T546 361L595 304Q575 261 532 229T436 197Q403 197 379 210T326 247Q303 266 287 275T250 285Q219 285 194 270T146 231L98 287Q115 326 160 359Z"></glyph><glyph unicode=" " glyph-name="uni00A0"></glyph><glyph unicode="¡" glyph-name="exclamdown" d="M266 577T237 552T166 526Q126 526 102 551T77 609Q77 651 105 675T181 699Q214 699 240 676T266 617Q266 577 237 552ZM124 433H229L272 -188H84L124 433Z"></glyph><glyph unicode="¢" glyph-name="cent" d="M60 395T125 474T301 567L311 685H396L387 568Q428 565 483 549Q512 541 519 540L511 359H411L384 474Q381 487 368 492T335 498Q236 498 236 299Q236 197 268 143T358 88Q433 88 495 126L522 67Q500 42 452 19T344 -10L338 -119H253L260 -6Q160 12 111 86T60 274Q60 395 125 474Z"></glyph><glyph unicode="£" glyph-name="sterling" d="M181 500Q181 574 217 631T316 720T454 752Q518 752 571 734T657 690L587 590Q580 603 557 623T503 658T440 673Q403 673 379 645T354 536V429H492V356H354V256Q354 199 338 165T292 107Q307 105 353 95Q421 79 466 79Q529 79 554 102T579 176Q579 205 570 230T549 266H715Q724 258 732 235T740 183Q740 130 712 87T631 19T508 -7Q456 -7 413 2T317 29Q282 40 259 45T214 52Q162 0 107 0Q78 0 59 13T40 52Q40 85 79 107T164 129Q171 139 176 168T181 235V356H93V429H181V500Z"></glyph><glyph unicode="¤" glyph-name="currency" d="M155 301T155 372Q155 446 196 506L84 617L146 681L260 567Q311 601 376 601Q442 601 495 569L608 681L671 618L560 509Q600 453 600 383Q600 308 557 249L669 139L606 75L494 188Q437 154 376 154Q312 154 259 185L147 73L84 137L194 246Q155 301 155 372ZM426 267T452 297T479 375Q479 424 448 456T375 488Q328 488 301 455T274 375Q274 331 305 299T377 267Q426 267 452 297Z"></glyph><glyph unicode="¥" glyph-name="yen" d="M120 662L53 676V743H386V676L316 663L421 458L447 398L474 457L578 663L497 676V743H758V676L684 662L533 397H717V331H501V230H717V164H501V75L608 63V0H229V63L328 75V164H115V230H328V331H115V397H286L120 662Z"></glyph><glyph unicode="¦" glyph-name="brokenbar" d="M266 464H156V869H266V464ZM266 -91H156V313H266V-91Z"></glyph><glyph unicode="§" glyph-name="section" d="M223 10Q234 -5 267 -18T340 -31Q393 -31 420 -12T447 39Q447 63 430 81T385 114T307 149L288 157Q219 187 176 217T109 287T86 385Q86 428 106 469T164 537Q109 589 109 659Q109 707 140 744T227 802T353 823Q428 823 525 794Q551 787 559 786L553 634H465L437 722Q431 731 405 741T345 751Q298 751 274 734T249 685Q249 658 264 640T302 610T378 575Q390 569 418 557Q475 533 513 512T579 454T607 366Q607 310 587 264T533 189Q586 139 586 74Q586 29 560 -10T477 -74T336 -99Q283 -99 237 -90T139 -64Q107 -54 94 -53L104 110H202L223 10ZM392 273Q454 244 480 229Q501 256 501 287Q501 320 481 344T427 388T326 440Q317 444 280 461T209 500Q186 477 186 438Q186 395 232 360T369 284L392 273Z"></glyph><glyph unicode="¨" glyph-name="dieresis" d="M84 652T64 675T43 731Q43 773 65 799T129 825Q169 825 189 803T209 746Q209 704 186 678T115 652Q84 652 64 675ZM332 652T312 676T291 731Q291 773 313 799T378 825Q417 825 437 803T457 746Q457 704 434 678T363 652Q332 652 312 676Z"></glyph><glyph unicode="©" glyph-name="copyright" d="M96 605T153 702T307 856T521 913Q637 913 734 857T887 703T944 489Q944 372 888 275T734 121T521 64Q405 64 308 120T153 274T96 489Q96 605 153 702ZM167 389T214 306T342 174T521 125Q619 125 699 174T826 306T873 489Q873 589 827 672T700 804T521 853Q422 853 341 804T214 672T167 489Q167 389 214 306ZM419 251T364 316T308 488Q308 556 339 612T427 700T555 732Q591 732 629 724T681 702L679 577H614L592 644Q582 651 568 655T525 659Q472 659 444 617T415 506Q415 433 454 389T557 344Q585 344 612 354T658 381L688 327Q665 298 620 275T526 251Q419 251 364 316Z"></glyph><glyph unicode="ª" glyph-name="ordfeminine" d="M156 328T123 342T69 386T48 457Q48 530 116 565T335 605V628Q335 674 315 696T248 718Q209 718 164 706T89 679L59 745Q92 766 150 783T269 800Q362 800 417 762T472 638V404H528V341Q511 337 478 333T417 329Q378 329 359 343T339 379V410Q318 371 280 350T190 328Q156 328 123 342ZM276 394T294 408T335 447V563Q189 560 189 463Q189 431 205 413T245 394Q276 394 294 408Z"></glyph><glyph unicode="«" glyph-name="guillemotleft" d="M342 534L208 298L342 69L279 40L56 260V336L279 561L342 534ZM631 534L482 298L631 69L567 40L331 260V336L567 561L631 534Z"></glyph><glyph unicode="¬" glyph-name="logicalnot" d="M586 82H476V263H103V356H586V82Z"></glyph><glyph unicode="­" glyph-name="uni00AD" d="M520 267H112V372H520V267Z"></glyph><glyph unicode="®" glyph-name="registered" d="M96 605T153 702T307 856T521 913Q637 913 734 857T887 703T944 489Q944 372 888 275T734 121T521 64Q405 64 308 120T153 274T96 489Q96 605 153 702ZM167 389T214 306T342 174T521 125Q619 125 699 174T826 306T873 489Q873 589 827 672T700 804T521 853Q422 853 341 804T214 672T167 489Q167 389 214 306ZM362 660L321 671V724H414Q436 723 476 725Q506 727 532 727Q626 727 671 693T716 599Q716 548 692 511T614 463Q652 448 669 424T700 361Q709 334 718 321T747 306V254H645Q624 254 613 273T591 333Q579 379 567 403T527 437H471V312L517 302V254H321V302L362 315V660ZM487 497T530 497Q558 497 577 522T596 583Q596 629 578 648T519 668Q492 668 471 663V501Q487 497 530 497Z"></glyph><glyph unicode="¯" glyph-name="overscore" d="M321 692H11V788H321V692Z"></glyph><glyph unicode="°" glyph-name="degree" d="M203 448T161 473T93 540T68 631Q68 682 93 724T160 790T253 814Q305 814 347 789T414 722T438 631Q438 580 413 538T346 472T253 448Q203 448 161 473ZM293 536T317 563T342 631Q342 670 316 698T252 727Q213 727 188 700T163 631Q163 593 190 565T254 536Q293 536 317 563Z"></glyph><glyph unicode="±" glyph-name="plusminus" d="M281 404L278 481V592H383V481L378 404L457 409H561V308H457L378 311L383 237V132H278V237L281 311L189 308H100V409H189L281 404ZM556 0H104V98H556V0Z"></glyph><glyph unicode="²" glyph-name="uni00B2" d="M99 398T157 448T256 556T297 668Q297 705 274 727T214 750Q175 750 147 735T92 698L48 748Q77 781 128 808T251 836Q334 836 382 795T430 681Q430 605 350 522T157 379L376 398L417 470L479 457L454 308H69L46 368Q99 398 157 448Z"></glyph><glyph unicode="³" glyph-name="uni00B3" d="M174 304T129 313T60 335V405Q79 395 113 390T174 384Q311 384 311 470Q311 500 288 522T212 546Q208 545 155 529L135 584Q156 588 200 605Q238 619 261 640T284 695Q284 755 203 755Q172 755 139 744T85 718L50 775Q73 798 127 817T240 837Q324 837 370 803T416 713Q416 668 386 637T298 583Q346 584 382 569T439 526T459 465Q459 393 394 349T210 304Q174 304 129 313Z"></glyph><glyph unicode="´" glyph-name="acute" d="M74 685L252 899L347 813Q321 769 251 711T135 636L74 685Z"></glyph><glyph unicode="µ" glyph-name="uni00B5" d="M93 476L43 495V554L235 566L256 554V169Q256 136 281 109T346 82Q380 82 401 97T430 133V476L372 495L371 554L573 566L593 554V69H645V5Q589 -13 529 -13Q497 -13 482 3T467 47V75Q453 38 419 14T345 -10Q315 -10 289 -1T247 26V-182H94L93 476Z"></glyph><glyph unicode="¶" glyph-name="paragraph" d="M283 385Q177 385 124 444T71 613Q71 677 102 727T194 806T340 835Q405 835 500 830Q564 826 605 826H738V758L659 748V75L727 65V0H534V751Q497 756 446 756Q416 756 408 754V0H185V65L283 75V385Z"></glyph><glyph unicode="·" glyph-name="middot" d="M77 299T52 323T26 383Q26 423 55 448T127 474Q167 474 191 449T215 390Q215 347 187 323T111 299Q77 299 52 323Z"></glyph><glyph unicode="¸" glyph-name="cedilla" d="M76 -256T56 -252T22 -242V-150Q43 -156 64 -156Q102 -156 117 -143T133 -87Q133 -63 123 -38T101 3L153 7L173 3Q196 -17 219 -55T242 -136Q242 -203 205 -229T93 -256Q76 -256 56 -252Z"></glyph><glyph unicode="¹" glyph-name="uni00B9" d="M197 702Q172 694 140 688T79 676L57 747Q114 763 162 782T249 833H251L327 819V386L444 374V308H69V374L197 385V702Z"></glyph><glyph unicode="º" glyph-name="ordmasculine" d="M164 333T103 391T42 566Q42 643 74 695T160 773T274 799Q383 799 438 740T494 569Q494 489 463 436T380 359T268 333Q164 333 103 391ZM297 393T314 405T339 452T347 559Q347 740 269 740Q228 740 209 702T189 574Q189 488 210 441T266 393Q297 393 314 405Z"></glyph><glyph unicode="»" glyph-name="guillemotright" d="M366 336V260L129 40L66 69L214 298L66 534L129 561L366 336ZM641 336V260L418 40L355 69L489 298L355 534L418 561L641 336Z"></glyph><glyph unicode="¼" glyph-name="onequarter" d="M197 652Q172 644 140 638T79 626L57 697Q114 713 162 732T249 783H251L327 769V336L444 324V258H69V324L197 335V652ZM810 803L468 -94L372 -90L713 808L810 803ZM740 214T909 545H1027L1051 518L877 241L822 169L990 178L1005 303L1101 308V183L1186 187V102H1101V1H988L987 102H748L707 155Q740 214 909 545Z"></glyph><glyph unicode="½" glyph-name="onehalf" d="M197 652Q172 644 140 638T79 626L57 697Q114 713 162 732T249 783H251L327 769V336L444 324V258H69V324L197 335V652ZM810 803L468 -94L372 -90L713 808L810 803ZM787 82T845 132T944 240T985 352Q985 389 962 411T902 434Q863 434 835 419T780 382L736 432Q765 465 816 492T939 520Q1022 520 1070 479T1118 365Q1118 289 1038 206T845 63L1064 82L1105 154L1167 141L1142 -8H757L734 52Q787 82 845 132Z"></glyph><glyph unicode="¾" glyph-name="threequarters" d="M174 254T129 263T60 285V355Q79 345 113 340T174 334Q311 334 311 420Q311 450 288 472T212 496Q208 495 155 479L135 534Q156 538 200 555Q238 569 261 590T284 645Q284 705 203 705Q172 705 139 694T85 668L50 725Q73 748 127 767T240 787Q324 787 370 753T416 663Q416 618 386 587T298 533Q346 534 382 519T439 476T459 415Q459 343 394 299T210 254Q174 254 129 263ZM808 803L466 -94L370 -90L711 808L808 803ZM738 214T907 545H1025L1049 518L875 241L820 169L988 178L1003 303L1099 308V183L1184 187V102H1099V1H986L985 102H746L705 155Q738 214 907 545Z"></glyph><glyph unicode="¿" glyph-name="questiondown" d="M329 702T354 679T380 619Q380 579 351 554T280 529Q240 529 216 553T191 612Q191 654 220 678T295 702Q329 702 354 679ZM351 404T365 370T382 301Q382 255 340 210T206 119Q205 118 195 97T185 37Q185 -2 205 -36T269 -92T377 -114Q417 -114 453 -95L476 -184Q453 -196 411 -205T312 -214Q213 -214 148 -182T53 -96T22 22Q22 73 42 108T89 166T161 213Q191 231 209 244T239 273Q247 285 246 305Q246 377 236 432H333Q351 404 365 370Z"></glyph><glyph unicode="À" glyph-name="Agrave" d="M262 746H442L666 76L721 66V0H406V66L477 76L443 196H204L170 75L248 66V0H-18L-19 66L39 77L262 746ZM336 572L321 642L305 571L224 273H422L336 572ZM329 805T275 841T190 913L296 982L430 836L366 792Q329 805 275 841Z"></glyph><glyph unicode="Á" glyph-name="Aacute" d="M262 746H442L666 76L721 66V0H406V66L477 76L443 196H204L170 75L248 66V0H-18L-19 66L39 77L262 746ZM336 572L321 642L305 571L224 273H422L336 572ZM266 836L395 982L507 913Q470 872 420 838T337 792L266 836Z"></glyph><glyph unicode="Â" glyph-name="Acircumflex" d="M262 746H442L666 76L721 66V0H406V66L477 76L443 196H204L170 75L248 66V0H-18L-19 66L39 77L262 746ZM336 572L321 642L305 571L224 273H422L336 572ZM400 980L550 835L495 789L352 884L208 789L154 834L305 980H400Z"></glyph><glyph unicode="Ã" glyph-name="Atilde" d="M262 746H442L666 76L721 66V0H406V66L477 76L443 196H204L170 75L248 66V0H-18L-19 66L39 77L262 746ZM336 572L321 642L305 571L224 273H422L336 572ZM394 804T376 813T336 842Q320 856 308 863T280 870Q257 870 243 855T219 810L158 848Q173 903 205 933T283 964Q312 964 331 954T372 926Q390 911 401 905T428 898Q449 898 462 913T486 958L548 920Q532 864 500 834T422 804Q394 804 376 813Z"></glyph><glyph unicode="Ä" glyph-name="Adieresis" d="M262 746H442L666 76L721 66V0H406V66L477 76L443 196H204L170 75L248 66V0H-18L-19 66L39 77L262 746ZM336 572L321 642L305 571L224 273H422L336 572ZM178 802T159 824T140 879Q140 920 161 945T224 970H225Q263 970 282 948T302 893Q302 853 279 828T210 802H209Q178 802 159 824ZM439 802T420 825T401 879Q401 920 421 945T484 970H485Q524 970 543 948T562 893Q562 853 540 828T470 802Q439 802 420 825Z"></glyph><glyph unicode="Å" glyph-name="Aring" d="M-19 66L39 77L259 737Q214 751 194 782T175 855Q176 915 224 949T352 983Q441 983 484 948T527 854Q527 814 505 785T444 741L666 76L721 66V0H406V66L477 76L443 196H204L170 75L248 66V0H-18L-19 66ZM272 823T291 802T351 780Q394 780 412 797T430 848Q430 883 412 904T352 925Q309 925 291 907T272 854Q272 823 291 802ZM422 273L336 572L321 642L305 571L224 273H422Z"></glyph><glyph unicode="Æ" glyph-name="AE" d="M400 205H172L124 76L198 65V0H-81V65L-10 76L233 660L105 674V743H868L883 566H804L769 667L570 678V417L692 421L709 502H778V251H709L693 338L570 341V69L790 83L854 212L948 186L915 0H322V65L400 76V205ZM400 671H342L292 531L200 284H400V671Z"></glyph><glyph unicode="Ç" glyph-name="Ccedilla" d="M206 -11T116 89T26 365Q26 483 74 570T206 704T396 751Q438 751 477 747T571 734Q614 727 630 726L618 503H511L477 656Q455 680 385 680Q308 680 264 604T219 379Q219 235 262 148T389 61Q430 61 451 69T488 92L533 199L631 190L613 27Q584 25 542 12Q502 1 467 -5T379 -11Q206 -11 116 89ZM304 -256T284 -252T250 -242V-150Q271 -156 292 -156Q330 -156 345 -143T361 -87Q361 -63 351 -38T329 3L381 7L401 3Q424 -17 447 -55T470 -136Q470 -203 433 -229T321 -256Q304 -256 284 -252Z"></glyph><glyph unicode="È" glyph-name="Egrave" d="M111 659L33 673V743H580L593 566H514L479 667L282 677V417L404 420L422 502H491V251H422L405 338L282 341V69L501 83L562 212L647 188L623 0H34V66L111 76V659ZM319 805T265 841T180 913L286 982L420 836L356 792Q319 805 265 841Z"></glyph><glyph unicode="É" glyph-name="Eacute" d="M111 659L33 673V743H580L593 566H514L479 667L282 677V417L404 420L422 502H491V251H422L405 338L282 341V69L501 83L562 212L647 188L623 0H34V66L111 76V659ZM256 836L385 982L497 913Q460 872 410 838T327 792L256 836Z"></glyph><glyph unicode="Ê" glyph-name="Ecircumflex" d="M111 659L33 673V743H580L593 566H514L479 667L282 677V417L404 420L422 502H491V251H422L405 338L282 341V69L501 83L562 212L647 188L623 0H34V66L111 76V659ZM390 980L540 835L485 789L342 884L198 789L144 834L295 980H390Z"></glyph><glyph unicode="Ë" glyph-name="Edieresis" d="M111 659L33 673V743H580L593 566H514L479 667L282 677V417L404 420L422 502H491V251H422L405 338L282 341V69L501 83L562 212L647 188L623 0H34V66L111 76V659ZM168 802T149 824T130 879Q130 920 151 945T214 970H215Q253 970 272 948T292 893Q292 853 269 828T200 802H199Q168 802 149 824ZM429 802T410 825T391 879Q391 920 411 945T474 970H475Q514 970 533 948T552 893Q552 853 530 828T460 802Q429 802 410 825Z"></glyph><glyph unicode="Ì" glyph-name="Igrave" d="M122 659L40 673V743H377V673L293 659V76L377 65V0H41V66L122 77V659ZM187 805T133 841T48 913L154 982L288 836L224 792Q187 805 133 841Z"></glyph><glyph unicode="Í" glyph-name="Iacute" d="M122 659L40 673V743H377V673L293 659V76L377 65V0H41V66L122 77V659ZM124 836L253 982L365 913Q328 872 278 838T195 792L124 836Z"></glyph><glyph unicode="Î" glyph-name="Icircumflex" d="M122 659L40 673V743H377V673L293 659V76L377 65V0H41V66L122 77V659ZM258 980L408 835L353 789L210 884L66 789L12 834L163 980H258Z"></glyph><glyph unicode="Ï" glyph-name="Idieresis" d="M122 659L40 673V743H377V673L293 659V76L377 65V0H41V66L122 77V659ZM36 802T17 824T-2 879Q-2 920 19 945T82 970H83Q121 970 140 948T160 893Q160 853 137 828T68 802H67Q36 802 17 824ZM297 802T278 825T259 879Q259 920 279 945T342 970H343Q382 970 401 948T420 893Q420 853 398 828T328 802Q297 802 278 825Z"></glyph><glyph unicode="Ð" glyph-name="Eth" d="M111 659L38 673V743H194Q227 743 283 747Q296 748 322 749T370 750Q552 750 644 659T736 398Q736 281 691 189T562 45T364 -8Q333 -8 271 -4Q213 0 196 0H34V66L111 77V350H42V419H111V659ZM419 350H280V74Q315 63 360 65Q450 66 499 141T549 373Q549 517 501 598T348 680Q324 680 305 677T280 673V419H419V350Z"></glyph><glyph unicode="Ñ" glyph-name="Ntilde" d="M113 660L35 673V743H286L562 317L618 197V660L533 673V743H789V673L713 660V0H566L273 457L207 589V77L313 66V0H35V66L113 77V660ZM463 804T445 813T405 842Q389 856 377 863T349 870Q326 870 312 855T288 810L227 848Q242 903 274 933T352 964Q381 964 400 954T441 926Q459 911 470 905T497 898Q518 898 531 913T555 958L617 920Q601 864 569 834T491 804Q463 804 445 813Z"></glyph><glyph unicode="Ò" glyph-name="Ograve" d="M189 -11T108 90T27 370Q27 485 69 571T189 705T369 752Q541 752 622 657T704 384Q704 267 661 178T540 39T357 -11Q189 -11 108 90ZM294 686T255 607T215 371Q215 211 254 134T365 56Q436 56 475 140T515 383Q515 543 477 614T366 686Q294 686 255 607ZM349 805T295 841T210 913L316 982L450 836L386 792Q349 805 295 841Z"></glyph><glyph unicode="Ó" glyph-name="Oacute" d="M189 -11T108 90T27 370Q27 485 69 571T189 705T369 752Q541 752 622 657T704 384Q704 267 661 178T540 39T357 -11Q189 -11 108 90ZM294 686T255 607T215 371Q215 211 254 134T365 56Q436 56 475 140T515 383Q515 543 477 614T366 686Q294 686 255 607ZM286 836L415 982L527 913Q490 872 440 838T357 792L286 836Z"></glyph><glyph unicode="Ô" glyph-name="Ocircumflex" d="M189 -11T108 90T27 370Q27 485 69 571T189 705T369 752Q541 752 622 657T704 384Q704 267 661 178T540 39T357 -11Q189 -11 108 90ZM294 686T255 607T215 371Q215 211 254 134T365 56Q436 56 475 140T515 383Q515 543 477 614T366 686Q294 686 255 607ZM420 980L570 835L515 789L372 884L228 789L174 834L325 980H420Z"></glyph><glyph unicode="Õ" glyph-name="Otilde" d="M189 -11T108 90T27 370Q27 485 69 571T189 705T369 752Q541 752 622 657T704 384Q704 267 661 178T540 39T357 -11Q189 -11 108 90ZM294 686T255 607T215 371Q215 211 254 134T365 56Q436 56 475 140T515 383Q515 543 477 614T366 686Q294 686 255 607ZM414 804T396 813T356 842Q340 856 328 863T300 870Q277 870 263 855T239 810L178 848Q193 903 225 933T303 964Q332 964 351 954T392 926Q410 911 421 905T448 898Q469 898 482 913T506 958L568 920Q552 864 520 834T442 804Q414 804 396 813Z"></glyph><glyph unicode="Ö" glyph-name="Odieresis" d="M189 -11T108 90T27 370Q27 485 69 571T189 705T369 752Q541 752 622 657T704 384Q704 267 661 178T540 39T357 -11Q189 -11 108 90ZM294 686T255 607T215 371Q215 211 254 134T365 56Q436 56 475 140T515 383Q515 543 477 614T366 686Q294 686 255 607ZM198 802T179 824T160 879Q160 920 181 945T244 970H245Q283 970 302 948T322 893Q322 853 299 828T230 802H229Q198 802 179 824ZM459 802T440 825T421 879Q421 920 441 945T504 970H505Q544 970 563 948T582 893Q582 853 560 828T490 802Q459 802 440 825Z"></glyph><glyph unicode="×" glyph-name="multiply" d="M67 459L154 546L310 374L465 546L550 460L385 301L550 143L465 57L310 228L155 57L70 143L235 301L67 459Z"></glyph><glyph unicode="Ø" glyph-name="Oslash" d="M105 70T66 158T27 370Q27 485 69 571T189 705T369 752Q429 752 474 741L517 853L589 832L544 717Q704 637 704 384Q704 268 662 179T542 40T361 -11Q308 -11 259 0L210 -116L134 -95L186 27Q105 70 66 158ZM294 686T255 607T215 371Q215 229 254 156L445 654Q414 686 366 686Q294 686 255 607ZM516 518T477 593L284 94Q316 56 365 56Q436 56 476 140T516 383Q516 518 477 593Z"></glyph><glyph unicode="Ù" glyph-name="Ugrave" d="M232 -8T155 67T78 302V659L16 673V743H339V673L255 658V288Q255 62 412 62Q490 62 526 121T563 286V659L477 673V743H737V673L671 659V295Q671 139 595 66T387 -8Q232 -8 155 67ZM384 805T330 841T245 913L351 982L485 836L421 792Q384 805 330 841Z"></glyph><glyph unicode="Ú" glyph-name="Uacute" d="M232 -8T155 67T78 302V659L16 673V743H339V673L255 658V288Q255 62 412 62Q490 62 526 121T563 286V659L477 673V743H737V673L671 659V295Q671 139 595 66T387 -8Q232 -8 155 67ZM321 836L450 982L562 913Q525 872 475 838T392 792L321 836Z"></glyph><glyph unicode="Û" glyph-name="Ucircumflex" d="M232 -8T155 67T78 302V659L16 673V743H339V673L255 658V288Q255 62 412 62Q490 62 526 121T563 286V659L477 673V743H737V673L671 659V295Q671 139 595 66T387 -8Q232 -8 155 67ZM455 980L605 835L550 789L407 884L263 789L209 834L360 980H455Z"></glyph><glyph unicode="Ü" glyph-name="Udieresis" d="M232 -8T155 67T78 302V659L16 673V743H339V673L255 658V288Q255 62 412 62Q490 62 526 121T563 286V659L477 673V743H737V673L671 659V295Q671 139 595 66T387 -8Q232 -8 155 67ZM233 802T214 824T195 879Q195 920 216 945T279 970H280Q318 970 337 948T357 893Q357 853 334 828T265 802H264Q233 802 214 824ZM494 802T475 825T456 879Q456 920 476 945T539 970H540Q579 970 598 948T617 893Q617 853 595 828T525 802Q494 802 475 825Z"></glyph><glyph unicode="Ý" glyph-name="Yacute" d="M243 298L36 660L-19 673V743H296V673L231 659L345 430L370 365L396 430L499 659L423 673V743H678V673L617 662L425 299V77L531 66V0H140V66L243 77V298ZM265 836L394 982L506 913Q469 872 419 838T336 792L265 836Z"></glyph><glyph unicode="Þ" glyph-name="Thorn" d="M111 660L32 674V743H364L365 674L282 660V575Q308 577 321 579Q387 585 427 585Q649 585 649 386Q649 271 584 214T398 157Q351 157 282 163V76L384 65V0H32V65L111 76V660ZM411 223T440 264T469 379Q469 439 442 477T355 515Q314 515 282 507V227Q307 223 333 223T365 223Q411 223 440 264Z"></glyph><glyph unicode="ß" glyph-name="germandbls" d="M77 473Q77 563 115 634T224 746T387 787Q486 787 536 753T586 654Q586 612 569 587T520 535Q496 514 485 500T474 464Q474 443 489 425T537 376Q571 345 593 320T632 257T649 174Q649 88 587 39T403 -11Q388 -11 361 -8T319 0V84Q332 78 351 74T390 70Q430 70 451 93T472 152Q472 195 454 225T401 292Q369 327 354 351T339 409Q339 436 349 455T381 500Q408 532 421 560T435 634Q435 714 364 714Q305 714 274 658T243 491V0H22V66L77 76V473Z"></glyph><glyph unicode="à" glyph-name="agrave" d="M28 248T117 295T353 343V363Q353 399 345 420T316 451T254 462Q205 462 167 451T86 420L52 492Q68 505 104 523T190 555T296 569Q376 569 421 548T486 483T506 363V66H558V3Q535 -2 494 -7T424 -12Q386 -12 374 -1T361 43V66Q336 36 294 13T197 -11Q150 -11 112 9T51 68T28 160Q28 248 117 295ZM293 81T315 91T353 117V276Q275 276 238 248T200 176Q200 131 220 106T275 81Q293 81 315 91ZM281 646T238 677T155 746T99 813L194 899L368 685L310 636H309Q281 646 238 677Z"></glyph><glyph unicode="á" glyph-name="aacute" d="M28 248T117 295T353 343V363Q353 399 345 420T316 451T254 462Q205 462 167 451T86 420L52 492Q68 505 104 523T190 555T296 569Q376 569 421 548T486 483T506 363V66H558V3Q535 -2 494 -7T424 -12Q386 -12 374 -1T361 43V66Q336 36 294 13T197 -11Q150 -11 112 9T51 68T28 160Q28 248 117 295ZM293 81T315 91T353 117V276Q275 276 238 248T200 176Q200 131 220 106T275 81Q293 81 315 91ZM177 686L351 900L447 814Q421 770 351 713T235 637L177 686Z"></glyph><glyph unicode="â" glyph-name="acircumflex" d="M28 248T117 295T353 343V363Q353 399 345 420T316 451T254 462Q205 462 167 451T86 420L52 492Q68 505 104 523T190 555T296 569Q376 569 421 548T486 483T506 363V66H558V3Q535 -2 494 -7T424 -12Q386 -12 374 -1T361 43V66Q336 36 294 13T197 -11Q150 -11 112 9T51 68T28 160Q28 248 117 295ZM293 81T315 91T353 117V276Q275 276 238 248T200 176Q200 131 220 106T275 81Q293 81 315 91ZM326 865L480 670L425 625L281 750L134 624L81 669L234 865H326Z"></glyph><glyph unicode="ã" glyph-name="atilde" d="M28 248T117 295T353 343V363Q353 399 345 420T316 451T254 462Q205 462 167 451T86 420L52 492Q68 505 104 523T190 555T296 569Q376 569 421 548T486 483T506 363V66H558V3Q535 -2 494 -7T424 -12Q386 -12 374 -1T361 43V66Q336 36 294 13T197 -11Q150 -11 112 9T51 68T28 160Q28 248 117 295ZM293 81T315 91T353 117V276Q275 276 238 248T200 176Q200 131 220 106T275 81Q293 81 315 91ZM82 757T120 789T207 822Q236 822 257 811T304 779Q323 764 335 757T361 750Q384 750 395 761T411 785T419 802L483 765Q477 713 443 679T358 645Q329 645 308 656T262 689Q242 705 229 712T201 720Q180 720 169 710T149 686T134 666L71 703Q82 757 120 789Z"></glyph><glyph unicode="ä" glyph-name="adieresis" d="M28 248T117 295T353 343V363Q353 399 345 420T316 451T254 462Q205 462 167 451T86 420L52 492Q68 505 104 523T190 555T296 569Q376 569 421 548T486 483T506 363V66H558V3Q535 -2 494 -7T424 -12Q386 -12 374 -1T361 43V66Q336 36 294 13T197 -11Q150 -11 112 9T51 68T28 160Q28 248 117 295ZM293 81T315 91T353 117V276Q275 276 238 248T200 176Q200 131 220 106T275 81Q293 81 315 91ZM116 643T97 666T77 722Q77 764 98 789T161 815Q200 815 219 793T238 737Q238 643 151 643Q116 643 97 666ZM365 643T345 667T325 722Q325 764 346 789T409 815Q448 815 467 793T487 737Q487 643 400 643Q365 643 345 667Z"></glyph><glyph unicode="å" glyph-name="aring" d="M28 248T117 295T353 343V363Q353 399 345 420T316 451T254 462Q205 462 167 451T86 420L52 492Q68 505 104 523T190 555T296 569Q376 569 421 548T486 483T506 363V66H558V3Q535 -2 494 -7T424 -12Q386 -12 374 -1T361 43V66Q336 36 294 13T197 -11Q150 -11 112 9T51 68T28 160Q28 248 117 295ZM293 81T315 91T353 117V276Q275 276 238 248T200 176Q200 131 220 106T275 81Q293 81 315 91ZM190 631T147 670T104 773Q104 843 157 882T287 921Q370 921 413 882T457 777Q457 709 407 670T279 631Q190 631 147 670ZM325 697T344 715T364 772Q364 809 344 831T282 853Q197 853 197 778Q197 743 218 720T281 697Q325 697 344 715Z"></glyph><glyph unicode="æ" glyph-name="ae" d="M124 -11T76 32T27 153Q27 245 113 293T353 343Q353 391 345 415T315 450T250 460Q205 460 170 451T110 432T79 419L45 491Q61 505 98 523T187 555T294 569Q355 569 392 556T450 515Q519 570 620 570Q726 570 781 517T838 367Q838 300 831 264H514Q519 179 555 135T658 90Q696 90 737 102T805 130L831 70Q816 52 782 34T704 2T616 -11Q465 -11 398 89Q369 46 314 18T196 -11Q124 -11 76 32ZM677 330Q678 341 678 372Q678 434 661 467T604 501Q561 501 538 465T513 330H677ZM304 81T331 97T372 138Q350 196 350 280Q275 279 240 249T205 175Q205 127 223 104T275 81Q304 81 331 97Z"></glyph><glyph unicode="ç" glyph-name="ccedilla" d="M31 363T67 430T168 533T318 570Q360 570 390 565T453 549Q482 541 489 540L482 359H381L355 474Q352 487 339 492T306 498Q259 498 233 452T206 299Q206 197 239 143T330 88Q404 88 466 126L493 67Q473 44 429 22T332 -8Q355 -33 372 -66T390 -135Q390 -202 353 -229T241 -256Q224 -256 204 -252T170 -242V-150Q191 -156 212 -156Q250 -156 265 -143T281 -87Q281 -68 274 -47T257 -9Q143 2 87 78T31 274Q31 363 67 430Z"></glyph><glyph unicode="è" glyph-name="egrave" d="M163 -11T97 66T31 278Q31 369 65 435T160 535T305 570Q410 570 465 517T523 367Q523 303 514 264H201Q206 179 242 135T345 90Q382 90 422 102T488 131L516 70Q490 41 428 15T300 -11Q163 -11 97 66ZM364 330L365 372Q365 435 348 468T290 501Q248 501 225 465T200 330H364ZM296 646T253 677T170 746T114 813L209 899L383 685L325 636H324Q296 646 253 677Z"></glyph><glyph unicode="é" glyph-name="eacute" d="M163 -11T97 66T31 278Q31 369 65 435T160 535T305 570Q410 570 465 517T523 367Q523 303 514 264H201Q206 179 242 135T345 90Q382 90 422 102T488 131L516 70Q490 41 428 15T300 -11Q163 -11 97 66ZM364 330L365 372Q365 435 348 468T290 501Q248 501 225 465T200 330H364ZM192 686L366 900L462 814Q436 770 366 713T250 637L192 686Z"></glyph><glyph unicode="ê" glyph-name="ecircumflex" d="M163 -11T97 66T31 278Q31 369 65 435T160 535T305 570Q410 570 465 517T523 367Q523 303 514 264H201Q206 179 242 135T345 90Q382 90 422 102T488 131L516 70Q490 41 428 15T300 -11Q163 -11 97 66ZM364 330L365 372Q365 435 348 468T290 501Q248 501 225 465T200 330H364ZM341 865L495 670L440 625L296 750L149 624L96 669L249 865H341Z"></glyph><glyph unicode="ë" glyph-name="edieresis" d="M163 -11T97 66T31 278Q31 369 65 435T160 535T305 570Q410 570 465 517T523 367Q523 303 514 264H201Q206 179 242 135T345 90Q382 90 422 102T488 131L516 70Q490 41 428 15T300 -11Q163 -11 97 66ZM364 330L365 372Q365 435 348 468T290 501Q248 501 225 465T200 330H364ZM131 643T112 666T92 722Q92 764 113 789T176 815Q215 815 234 793T253 737Q253 643 166 643Q131 643 112 666ZM380 643T360 667T340 722Q340 764 361 789T424 815Q463 815 482 793T502 737Q502 643 415 643Q380 643 360 667Z"></glyph><glyph unicode="ì" glyph-name="igrave" d="M103 451L36 470V545L236 569H238L269 548V75L329 66V0H41V66L103 75V451ZM178 646T135 677T52 746T-4 813L91 899L265 685L207 636H206Q178 646 135 677Z"></glyph><glyph unicode="í" glyph-name="iacute" d="M103 451L36 470V545L236 569H238L269 548V75L329 66V0H41V66L103 75V451ZM74 686L248 900L344 814Q318 770 248 713T132 637L74 686Z"></glyph><glyph unicode="î" glyph-name="icircumflex" d="M103 451L36 470V545L236 569H238L269 548V75L329 66V0H41V66L103 75V451ZM223 865L377 670L322 625L178 750L31 624L-22 669L131 865H223Z"></glyph><glyph unicode="ï" glyph-name="idieresis" d="M103 451L36 470V545L236 569H238L269 548V75L329 66V0H41V66L103 75V451ZM13 643T-6 666T-26 722Q-26 764 -5 789T58 815Q97 815 116 793T135 737Q135 643 48 643Q13 643 -6 666ZM262 643T242 667T222 722Q222 764 243 789T306 815Q345 815 364 793T384 737Q384 643 297 643Q262 643 242 667Z"></glyph><glyph unicode="ð" glyph-name="eth" d="M171 -11T102 65T32 268Q32 367 68 435T163 536T289 570Q342 570 379 554Q350 657 251 724L187 639L121 684L189 768Q161 786 133 799T87 818L115 885Q189 868 246 840L309 921L372 873L314 801Q430 722 502 604T575 331Q575 242 548 165T460 39T299 -11Q171 -11 102 65ZM355 60T379 118T404 308Q404 358 398 403T385 473Q375 484 355 493T307 503Q210 503 210 285Q210 188 233 124T307 60Q355 60 379 118Z"></glyph><glyph unicode="ñ" glyph-name="ntilde" d="M98 451L39 469V547L221 569H224L250 548V511L249 488Q284 521 338 544T451 567Q511 567 545 546T595 477T611 349V75L667 67V0H395V66L444 75V348Q444 396 438 422T415 461T369 473Q323 473 265 430V75L320 66V0H43V66L98 75V451ZM141 757T179 789T266 822Q295 822 316 811T363 779Q382 764 394 757T420 750Q443 750 454 761T470 785T478 802L542 765Q536 713 502 679T417 645Q388 645 367 656T321 689Q301 705 288 712T260 720Q239 720 228 710T208 686T193 666L130 703Q141 757 179 789Z"></glyph><glyph unicode="ò" glyph-name="ograve" d="M45 371T83 437T185 537T327 570Q453 570 524 495T596 284Q596 185 558 119T456 21T313 -11Q188 -11 117 64T45 275Q45 371 83 437ZM371 59T394 110T418 272Q418 389 396 444T320 500Q222 500 222 287Q222 171 246 115T323 59Q371 59 394 110ZM325 646T282 677T199 746T143 813L238 899L412 685L354 636H353Q325 646 282 677Z"></glyph><glyph unicode="ó" glyph-name="oacute" d="M45 371T83 437T185 537T327 570Q453 570 524 495T596 284Q596 185 558 119T456 21T313 -11Q188 -11 117 64T45 275Q45 371 83 437ZM371 59T394 110T418 272Q418 389 396 444T320 500Q222 500 222 287Q222 171 246 115T323 59Q371 59 394 110ZM221 686L395 900L491 814Q465 770 395 713T279 637L221 686Z"></glyph><glyph unicode="ô" glyph-name="ocircumflex" d="M45 371T83 437T185 537T327 570Q453 570 524 495T596 284Q596 185 558 119T456 21T313 -11Q188 -11 117 64T45 275Q45 371 83 437ZM371 59T394 110T418 272Q418 389 396 444T320 500Q222 500 222 287Q222 171 246 115T323 59Q371 59 394 110ZM370 865L524 670L469 625L325 750L178 624L125 669L278 865H370Z"></glyph><glyph unicode="õ" glyph-name="otilde" d="M45 371T83 437T185 537T327 570Q453 570 524 495T596 284Q596 185 558 119T456 21T313 -11Q188 -11 117 64T45 275Q45 371 83 437ZM371 59T394 110T418 272Q418 389 396 444T320 500Q222 500 222 287Q222 171 246 115T323 59Q371 59 394 110ZM126 757T164 789T251 822Q280 822 301 811T348 779Q367 764 379 757T405 750Q428 750 439 761T455 785T463 802L527 765Q521 713 487 679T402 645Q373 645 352 656T306 689Q286 705 273 712T245 720Q224 720 213 710T193 686T178 666L115 703Q126 757 164 789Z"></glyph><glyph unicode="ö" glyph-name="odieresis" d="M45 371T83 437T185 537T327 570Q453 570 524 495T596 284Q596 185 558 119T456 21T313 -11Q188 -11 117 64T45 275Q45 371 83 437ZM371 59T394 110T418 272Q418 389 396 444T320 500Q222 500 222 287Q222 171 246 115T323 59Q371 59 394 110ZM160 643T141 666T121 722Q121 764 142 789T205 815Q244 815 263 793T282 737Q282 643 195 643Q160 643 141 666ZM409 643T389 667T369 722Q369 764 390 789T453 815Q492 815 511 793T531 737Q531 643 444 643Q409 643 389 667Z"></glyph><glyph unicode="÷" glyph-name="divide" d="M297 463T273 484T249 538Q249 573 276 596T341 620Q378 620 400 598T422 544Q422 507 396 485T328 463Q297 463 273 484ZM562 274H100V372H562V274ZM245 146T272 169T337 192Q374 192 396 170T418 117Q418 79 392 57T323 35Q292 35 269 56T245 110Q245 146 272 169Z"></glyph><glyph unicode="ø" glyph-name="oslash" d="M31 371T69 437T171 537T313 570Q341 570 371 565L409 677L477 657L441 545Q509 513 545 446T582 284Q582 185 544 119T442 21T299 -11Q281 -11 247 -7L202 -130L131 -110L176 13Q106 44 69 111T31 275Q31 371 69 437ZM208 179T234 127L354 481Q336 500 306 500Q208 500 208 287Q208 179 234 127ZM357 59T380 110T404 272Q404 379 380 428L261 77Q279 59 309 59Q357 59 380 110Z"></glyph><glyph unicode="ù" glyph-name="ugrave" d="M457 -10T441 5T425 51V73Q401 40 353 15T256 -11Q158 -11 117 37T75 200V478L28 491V555L216 568H217L239 554V196Q239 131 255 106T312 80Q368 80 406 118V478L344 493V555L542 568H545L569 554V69H622V5Q588 -2 560 -6T493 -10Q457 -10 441 5ZM310 646T267 677T184 746T128 813L223 899L397 685L339 636H338Q310 646 267 677Z"></glyph><glyph unicode="ú" glyph-name="uacute" d="M457 -10T441 5T425 51V73Q401 40 353 15T256 -11Q158 -11 117 37T75 200V478L28 491V555L216 568H217L239 554V196Q239 131 255 106T312 80Q368 80 406 118V478L344 493V555L542 568H545L569 554V69H622V5Q588 -2 560 -6T493 -10Q457 -10 441 5ZM206 686L380 900L476 814Q450 770 380 713T264 637L206 686Z"></glyph><glyph unicode="û" glyph-name="ucircumflex" d="M457 -10T441 5T425 51V73Q401 40 353 15T256 -11Q158 -11 117 37T75 200V478L28 491V555L216 568H217L239 554V196Q239 131 255 106T312 80Q368 80 406 118V478L344 493V555L542 568H545L569 554V69H622V5Q588 -2 560 -6T493 -10Q457 -10 441 5ZM355 865L509 670L454 625L310 750L163 624L110 669L263 865H355Z"></glyph><glyph unicode="ü" glyph-name="udieresis" d="M457 -10T441 5T425 51V73Q401 40 353 15T256 -11Q158 -11 117 37T75 200V478L28 491V555L216 568H217L239 554V196Q239 131 255 106T312 80Q368 80 406 118V478L344 493V555L542 568H545L569 554V69H622V5Q588 -2 560 -6T493 -10Q457 -10 441 5ZM145 643T126 666T106 722Q106 764 127 789T190 815Q229 815 248 793T267 737Q267 643 180 643Q145 643 126 666ZM394 643T374 667T354 722Q354 764 375 789T438 815Q477 815 496 793T516 737Q516 643 429 643Q394 643 374 667Z"></glyph><glyph unicode="ý" glyph-name="yacute" d="M119 -249T97 -246T64 -238V-118Q71 -123 94 -127T136 -132Q187 -132 217 -100T272 0H214L27 480L-17 492V556H278V492L208 480L291 214L321 113L345 214L422 481L362 492V556H588V492L540 481Q498 352 438 178T370 -12Q340 -95 310 -145T238 -222T140 -249Q119 -249 97 -246ZM208 686L382 900L478 814Q452 770 382 713T266 637L208 686Z"></glyph><glyph unicode="þ" glyph-name="thorn" d="M203 820H205L237 800V508Q263 535 301 552T382 570Q479 570 538 503T598 296Q598 209 562 139T457 29T297 -11Q259 -11 235 -7L238 -67V-168L331 -181V-242H15V-181L77 -168V725L6 738V796L203 820ZM295 472T273 461T237 435V73Q241 63 259 57T302 51Q358 51 391 110T424 284Q424 381 396 426T320 472Q295 472 273 461Z"></glyph><glyph unicode="ÿ" glyph-name="ydieresis" d="M119 -249T97 -246T64 -238V-118Q71 -123 94 -127T136 -132Q187 -132 217 -100T272 0H214L27 480L-17 492V556H278V492L208 480L291 214L321 113L345 214L422 481L362 492V556H588V492L540 481Q498 352 438 178T370 -12Q340 -95 310 -145T238 -222T140 -249Q119 -249 97 -246ZM147 643T128 666T108 722Q108 764 129 789T192 815Q231 815 250 793T269 737Q269 643 182 643Q147 643 128 666ZM396 643T376 667T356 722Q356 764 377 789T440 815Q479 815 498 793T518 737Q518 643 431 643Q396 643 376 667Z"></glyph><glyph unicode="–" glyph-name="endash" d="M705 266H112V372H705V266Z"></glyph><glyph unicode="—" glyph-name="emdash" d="M1102 266H112V372H1102V266Z"></glyph><glyph unicode="‘" glyph-name="quoteleft" d="M176 393T150 416T108 478T93 559Q93 629 118 690T180 795T252 858L291 823V807Q267 785 245 738T223 628Q223 600 231 583T256 543Q272 523 279 508T287 468Q287 436 265 415T209 393Q176 393 150 416Z"></glyph><glyph unicode="’" glyph-name="quoteright" d="M98 421V438Q110 450 126 483T154 561T166 650Q166 665 160 675T139 700Q121 717 112 733T102 776Q102 808 124 830T180 852Q213 852 239 830T281 772T296 692Q296 622 271 559T209 450T138 387L98 421Z"></glyph><glyph unicode="‚" glyph-name="quotesinglbase" d="M98 -225V-209Q110 -197 126 -164T154 -86T166 3Q166 18 160 28T139 53Q121 71 112 87T102 130Q102 162 124 183T180 205Q213 205 239 183T281 125T296 45Q296 -25 271 -88T209 -196T138 -260L98 -225Z"></glyph><glyph unicode="“" glyph-name="quotedblleft" d="M176 393T150 416T108 478T93 559Q93 629 118 690T180 795T251 858H252L291 823V807Q266 784 245 741T223 635Q223 604 232 584T258 542Q273 522 280 507T287 468Q287 436 265 415T209 393Q176 393 150 416ZM464 393T438 416T396 478T381 559Q381 629 406 690T468 795T539 858H540L579 823V807Q554 784 532 741T510 635Q510 604 519 584T545 542Q560 522 567 507T574 468Q574 436 552 415T497 393Q464 393 438 416Z"></glyph><glyph unicode="”" glyph-name="quotedblright" d="M98 448V464Q122 487 144 533T166 641Q166 671 158 689T132 729Q117 749 110 764T102 803Q102 835 124 856T180 878Q213 878 239 855T281 794T296 713Q296 643 271 581T209 476T138 414H137L98 448ZM385 448V464Q409 487 431 533T453 641Q453 671 445 689T419 729Q404 749 397 764T389 803Q389 835 411 856T466 878Q499 878 526 855T568 794T583 713Q583 643 558 581T496 476T425 414H424L385 448Z"></glyph><glyph unicode="„" glyph-name="quotedblbase" d="M98 -227V-211Q123 -187 144 -144T166 -39Q166 -8 157 12T131 54Q116 74 109 89T102 128Q102 160 124 181T180 203Q213 203 239 180T281 118T296 37Q296 -33 271 -94T209 -199T138 -262H137L98 -227ZM385 -227V-211Q410 -187 431 -144T453 -39Q453 -8 444 12T418 54Q403 74 396 89T389 128Q389 160 411 181T466 203Q499 203 526 180T568 119T583 37Q583 -33 558 -94T496 -199T425 -262H424L385 -227Z"></glyph><glyph unicode="•" glyph-name="bullet" d="M157 208T123 244T87 333Q87 369 105 397T154 442T219 459Q270 459 304 424T338 333Q338 299 320 270T271 225T207 208Q157 208 123 244Z"></glyph><glyph unicode="‹" glyph-name="guilsinglleft" d="M356 534L208 298L356 69L293 40L56 260V336L293 561L356 534Z"></glyph><glyph unicode="›" glyph-name="guilsinglright" d="M366 336V260L129 40L66 69L214 298L66 534L129 561L366 336Z"></glyph></font>
</defs>
</svg>
